Saturday, October 29, 2011

Carlos Kleiber First Recordings



Georg Philipp Telemann
Suite in B-flat major (Tafelmusik)

Carl Philipp Emanuel Bach
Cello Concerto in B-flat major, Wq. 171

Interview Carlos Kleiber

Carlos Kleiber
Hamburger Rundfunkorchester

Recorded: Hamburg, 12/1960

Not for the repertoires, but for its documentary value. :)

8 comments:

  1. http://www.fileserve.com/file/zZWhB5t
    http://www.fileserve.com/file/BhCxZM8

    ReplyDelete
    Replies
    1. This comment has been removed by the author.

      Delete
  2. Where is this disc available for sale? Its release on Hmv Japan is postphoned.

    ReplyDelete
  3. Hi Jim,
    This item is first available on Amazon.de.

    Thanks,

    ReplyDelete
  4. sorry, forgot the cue file.

    REM GENRE Classical
    REM DATE 2011
    REM COMMENT Recorded: Hamburg, 12/01-02/1960 (1-6, 10), 12/07/1960 (7-9)
    PERFORMER "Carlos Kleiber"
    TITLE "Profile PH11031"
    FILE "CDImage.wav" WAVE
    TRACK 01 AUDIO
    TITLE "Telemann: Suite in B-flat major (Tafelmusik) - Overture"
    PERFORMER "Carlos Kleiber"
    INDEX 01 00:00:00
    TRACK 02 AUDIO
    TITLE "Telemann: Suite in B-flat major (Tafelmusik) - Bergerie"
    PERFORMER "Carlos Kleiber"
    INDEX 01 04:20:24
    TRACK 03 AUDIO
    TITLE "Telemann: Suite in B-flat major (Tafelmusik) - Allegresse"
    PERFORMER "Carlos Kleiber"
    INDEX 01 05:49:31
    TRACK 04 AUDIO
    TITLE "Telemann: Suite in B-flat major (Tafelmusik) - Flaterie"
    PERFORMER "Carlos Kleiber"
    INDEX 01 08:06:72
    TRACK 05 AUDIO
    TITLE "Telemann: Suite in B-flat major (Tafelmusik) - Menuet"
    PERFORMER "Carlos Kleiber"
    INDEX 01 09:42:43
    TRACK 06 AUDIO
    TITLE "Telemann: Suite in B-flat major (Tafelmusik) - Conclusion"
    PERFORMER "Carlos Kleiber"
    INDEX 01 11:53:35
    TRACK 07 AUDIO
    TITLE "C.P.E. Bach: Cello Concerto in B-flat major, Wq. 171 - I. Allegretto"
    PERFORMER "Carlos Kleiber"
    INDEX 01 14:09:26
    TRACK 08 AUDIO
    TITLE "C.P.E. Bach: Cello Concerto in B-flat major, Wq. 171 - II. Adagio"
    PERFORMER "Carlos Kleiber"
    INDEX 01 23:18:62
    TRACK 09 AUDIO
    TITLE "C.P.E. Bach: Cello Concerto in B-flat major, Wq. 171 - III. Allegro assai"
    PERFORMER "Carlos Kleiber"
    INDEX 01 31:12:24
    TRACK 10 AUDIO
    TITLE "Interview Carlos Kleiber"
    PERFORMER "Carlos Kleiber"
    INDEX 01 37:52:69

    ReplyDelete
  5. Hi Novan,
    Thanks for the info. I would first listen to your sharing and wait for its international release:)
    Jim

    ReplyDelete
  6. I was able to order it from Amazon.de. If anyone finds an English translation of the interview anywhere, please let me (and other English speaking Kleiber fans) know.

    ReplyDelete
  7. Excellent & remarkable post! I have been visiting various blogs for my Thesis writing help. I have found your blog to be quite useful. Keep updating your blog with valuable information... concerto de p�ra-brisas

    ReplyDelete